电影下载

 找回密码
 注册

查看: 421|回复: 0

[日韩] 我的麻烦大佬.My.Annoying.Brother.2016.1080p.BluRay.x264.韩语简繁中字.9.97GB

[复制链接]

2万

主题

3万

帖子

3万

影币

管理员

Rank: 8Rank: 8Rank: 8Rank: 8Rank: 8Rank: 8Rank: 8Rank: 8

积分
37597
注册时间
2010-9-1
最后登录
2017-12-3

Medal No.1Medal No.2Medal No.3Medal No.4Medal No.5Medal No.6Medal No.7Medal No.8Medal No.9Medal No.10Medal No.16Medal No.23

发表于 2017-5-14 10:59:20 | 显示全部楼层 |阅读模式
我的麻烦大佬海报


导演: 全秀庆
编剧: 刘英雅
主演: 都暻秀 / 曹政奭 / 朴信惠
类型: 剧情
制片国家/地区: 韩国
语言: 韩语
上映日期: 2016-11-23(韩国)
片长: 110分钟
又名: 我的麻烦大佬(港) / 哥哥 / My Annoying Brother
IMDb链接: tt6388082

我的麻烦大佬简介 · · · · · ·
  《我的麻烦大佬》电影讲述了已经分离15年的两兄弟在不得已共同生活后所发生的故事。曹政奭在片中饰演没有廉耻之心的哥哥斗植,因诈骗罪服役中的他以国家级柔道选手弟弟为借口获得了假释,而都暻秀则饰演本来是成绩优异的柔道选手,却在国家代表选拔赛前因事故导致人生产生了翻天覆地变化的弟弟。朴信惠将饰演对都暻秀像亲姐姐一样珍惜给予疼爱,与突然出现的曺政奭争吵不休的角色 。

我的麻烦大佬截图







Video
ID                                       : 1
Format                                   : AVC
Format/Info                              : Advanced Video Codec
Format profile                           : High@L4.1
Format settings, CABAC                   : Yes
Format settings, ReFrames                : 5 frames
Codec ID                                 : V_MPEG4/ISO/AVC
Duration                                 : 1h 49mn
Bit rate                                 : 12.4 Mbps
Width                                    : 1 920 pixels
Height                                   : 804 pixels
Display aspect ratio                     : 2.40:1
Frame rate mode                          : Constant
Frame rate                               : 24.000 fps
Color space                              : YUV
Chroma subsampling                       : 4:2:0
Bit depth                                : 8 bits
Scan type                                : Progressive
Bits/(Pixel*Frame)                       : 0.334
Stream size                              : 9.48 GiB (95%)
Writing library                          : x264 core 129 r2245 bc13772
Encoding settings                        : cabac=1 / ref=5 / deblock=1:-3:-3 / analyse=0x3:0x133 / me=umh / subme=11 / psy=1 / psy_rd=1.05:0.05 / mixed_ref=1 / me_range=64 / chroma_me=1 / trellis=2 / 8x8dct=1 / cqm=0 / deadzone=21,11 / fast_pskip=0 / chroma_qp_offset=-3 / threads=6 / lookahead_threads=1 / sliced_threads=0 / nr=0 / decimate=1 / interlaced=0 / bluray_compat=0 / constrained_intra=0 / bframes=8 / b_pyramid=2 / b_adapt=2 / b_bias=0 / direct=3 / weightb=1 / open_gop=0 / weightp=2 / keyint=250 / keyint_min=24 / scenecut=40 / intra_refresh=0 / rc_lookahead=60 / rc=2pass / mbtree=1 / bitrate=12377 / ratetol=1.0 / qcomp=0.60 / qpmin=0 / qpmax=69 / qpstep=4 / cplxblur=20.0 / qblur=0.5 / vbv_maxrate=40000 / vbv_bufsize=30000 / nal_hrd=none / ip_ratio=1.40 / aq=1:0.80
Language                                 : English
Default                                  : Yes
Forced                                   : No

Audio
ID                                       : 2
Format                                   : AC-3
Format/Info                              : Audio Coding 3
Mode extension                           : CM (complete main)
Format settings, Endianness              : Big
Codec ID                                 : A_AC3
Duration                                 : 1h 49mn
Bit rate mode                            : Constant
Bit rate                                 : 640 Kbps
Channel(s)                               : 6 channels
Channel positions                        : Front: L C R, Side: L R, LFE
Sampling rate                            : 48.0 KHz
Frame rate                               : 31.250 fps (1536 spf)
Compression mode                         : Lossy
Stream size                              : 503 MiB (5%)
Language                                 : Korean
Default                                  : Yes
Forced                                   : No

Text #1
ID                                       : 3
Format                                   : UTF-8
Codec ID                                 : S_TEXT/UTF8
Codec ID/Info                            : UTF-8 Plain Text
Duration                                 : 1h 45mn
Bit rate                                 : 34 bps
Count of elements                        : 1399
Stream size                              : 27.0 KiB (0%)
Title                                    : 简体
Language                                 : Chinese
Default                                  : Yes
Forced                                   : No

Text #2
ID                                       : 4
Format                                   : UTF-8
Codec ID                                 : S_TEXT/UTF8
Codec ID/Info                            : UTF-8 Plain Text
Duration                                 : 1h 45mn
Bit rate                                 : 34 bps
Count of elements                        : 1399
Stream size                              : 27.0 KiB (0%)
Title                                    : 繁体
Language                                 : Chinese
Default                                  : No
Forced                                   : No

我的麻烦大佬.My.Annoying.Brother.2016.1080p.BluRay.x264.韩语简繁中字.9.97GB.torrent

100.32 KB, 下载次数: 31

您需要登录后才可以回帖 登录 | 注册

本版积分规则

Archiver|小黑屋|手机版|电影下载 ( 蜀ICP备16033905号-1 )

GMT+8, 2017-12-17 06:32

Powered by Discuz! X3

© 2001-2013 Comsenz Inc.

快速回复 返回顶部 返回列表