电影下载

 找回密码
 注册

查看: 628|回复: 0

[日韩] 阿修罗.Asura.The.City.of.Madness.2016.720p.BluRay.x264-WiKi.韩语简繁中字.5.46GB

[复制链接]

2万

主题

3万

帖子

3万

影币

管理员

Rank: 8Rank: 8Rank: 8Rank: 8Rank: 8Rank: 8Rank: 8Rank: 8

积分
37610
注册时间
2010-9-1
最后登录
2017-12-3

Medal No.1Medal No.2Medal No.3Medal No.4Medal No.5Medal No.6Medal No.7Medal No.8Medal No.9Medal No.10Medal No.16Medal No.23

发表于 2017-6-10 19:07:56 | 显示全部楼层 |阅读模式
阿修罗海报


导演: 金成洙
编剧: 金成洙
主演: 郑雨盛 / 黄政民 / 朱智勋 / 郭度沅 / 郑满植 / 金元海 / 尹宰文 / 尹智慧
类型: 剧情 / 动作 / 犯罪
制片国家/地区: 韩国
语言: 韩语
上映日期: 2016-09-12(多伦多电影节) / 2016-09-28(韩国)
片长: 136分钟
又名: Asura: The City of Madness
IMDb链接: tt5918028

阿修罗的剧情简介 · · · · · ·
  身处台风眼的刑警韩度京(郑雨盛饰),夹在朴成裴市长(黄政民饰)和调查他的刑警队之间,为了自己的生存而不择手段。片中最大的反派朴成裴市长,为了追求私利而无所不为。刑警文先模(朱智勋饰),在韩度京的命令下,接近朴市长担任卧底工作。另一方面,特殊监察支队的检察官金车仁(郭道元饰)也在调查着朴成裴市长,是个心狠手辣的角色。韩度京为了取得成功而不惜为市长朴成裴的各种犯罪活动做善后,并从中收取报酬。韩度京得知妻子身患癌症后,以筹措医疗费用为借口,赚钱不计手段,渐渐偏离了警察的职业道德,走上歪路。负责特种案件的检察官金车仁手里攥着韩度京的弱点,刑警调查队队长都昌学(郑万植饰)也为了获取朴成裴的犯罪证据而威胁韩度京。后辈刑警文先模,视韩度京如亲哥哥,打进朴成裴团伙做卧底工作。韩度京处于两种势力之间进退维谷,此时的文先模也慢慢被腐蚀。就这样,几个男人各自为了生存厮杀,他们之间没有最坏,只有谁更坏。

阿修罗的获奖情况
第37届韩国电影青龙奖 最佳男主角(提名) 郑雨盛
第37届韩国电影青龙奖 最佳美术(提名)
第37届韩国电影青龙奖 最佳配乐(提名)

阿修罗截图











[-] Hide MediaInfo

Video
ID                                       : 1
Format                                   : AVC
Format/Info                              : Advanced Video Codec
Format profile                           : High@L4.1
Format settings, CABAC                   : Yes
Format settings, ReFrames                : 9 frames
Codec ID                                 : V_MPEG4/ISO/AVC
Duration                                 : 2h 12mn
Bit rate                                 : 5 242 Kbps
Width                                    : 1 280 pixels
Height                                   : 692 pixels
Display aspect ratio                     : 1.85:1
Frame rate mode                          : Constant
Frame rate                               : 24.000 fps
Color space                              : YUV
Chroma subsampling                       : 4:2:0
Bit depth                                : 8 bits
Scan type                                : Progressive
Bits/(Pixel*Frame)                       : 0.247
Stream size                              : 4.86 GiB (89%)
Writing library                          : x264 core 129 r2245+704+36 8e61944 tMod+MixAQ [8-bit@4:2:0 X86_64]
Encoding settings                        : cabac=1 / ref=9 / deblock=1:-3:-3 / analyse=0x3:0x133 / me=umh / subme=11 / psy=1 / fade_compensate=0.00 / psy_rd=1.05:0.10 / mixed_ref=1 / me_range=32 / chroma_me=1 / trellis=2 / 8x8dct=1 / cqm=0 / deadzone=21,11 / fast_pskip=0 / chroma_qp_offset=-3 / threads=18 / lookahead_threads=3 / sliced_threads=0 / nr=0 / decimate=0 / interlaced=0 / bluray_compat=0 / constrained_intra=0 / fgo=0 / bframes=10 / b_pyramid=2 / b_adapt=2 / b_bias=0 / direct=3 / weightb=1 / open_gop=0 / weightp=2 / keyint=250 / keyint_min=24 / scenecut=40 / intra_refresh=0 / rc_lookahead=80 / rc=2pass / mbtree=1 / bitrate=5242 / ratetol=1.0 / qcomp=0.70 / qpmin=0 / qpmax=69 / qpstep=4 / cplxblur=20.0 / qblur=0.5 / ip_ratio=1.40 / aq=1 / aq-strength=0.85 / aq-sensitivity=10.00 / aq-ifactor=1.00 / aq-pfactor=1.00 / aq-bfactor=1.00 / aq2=0
Language                                 : Korean
Default                                  : Yes
Forced                                   : No

Audio
ID                                       : 2
Format                                   : AC-3
Format/Info                              : Audio Coding 3
Mode extension                           : CM (complete main)
Format settings, Endianness              : Big
Codec ID                                 : A_AC3
Duration                                 : 2h 12mn
Bit rate mode                            : Constant
Bit rate                                 : 640 Kbps
Channel(s)                               : 6 channels
Channel positions                        : Front: L C R, Side: L R, LFE
Sampling rate                            : 48.0 KHz
Frame rate                               : 31.250 fps (1536 spf)
Compression mode                         : Lossy
Stream size                              : 608 MiB (11%)
Language                                 : Korean
Default                                  : Yes
Forced                                   : No

Text #1
ID                                       : 3
Format                                   : UTF-8
Codec ID                                 : S_TEXT/UTF8
Codec ID/Info                            : UTF-8 Plain Text
Duration                                 : 2h 9mn
Bit rate                                 : 34 bps
Count of elements                        : 1531
Stream size                              : 33.1 KiB (0%)
Title                                    : Simplified
Language                                 : Chinese
Default                                  : Yes
Forced                                   : No

Text #2
ID                                       : 4
Format                                   : UTF-8
Codec ID                                 : S_TEXT/UTF8
Codec ID/Info                            : UTF-8 Plain Text
Duration                                 : 2h 9mn
Bit rate                                 : 34 bps
Count of elements                        : 1531
Stream size                              : 33.1 KiB (0%)
Title                                    : Traditional
Language                                 : Chinese
Default                                  : No
Forced                                   : No

Menu
00:00:00.000                             : en:00:00:00.000
00:13:25.291                             : en:00:13:25.291
00:24:30.791                             : en:00:24:30.791
00:33:38.666                             : en:00:33:38.666
00:43:25.666                             : en:00:43:25.666
00:54:29.041                             : en:00:54:29.041
01:05:51.708                             : en:01:05:51.708
01:17:19.458                             : en:01:17:19.458
01:30:06.375                             : en:01:30:06.375
01:41:11.208                             : en:01:41:11.208
01:54:13.708                             : en:01:54:13.708
02:01:23.416                             : en:02:01:23.416

阿修罗.Asura.The.City.of.Madness.2016.720p.BluRay.x264-WiKi.韩语简繁中字.5.46GB.torrent

55.2 KB, 下载次数: 37

您需要登录后才可以回帖 登录 | 注册

本版积分规则

Archiver|小黑屋|手机版|电影下载 ( 蜀ICP备16033905号-1 )

GMT+8, 2017-12-19 02:34

Powered by Discuz! X3

© 2001-2013 Comsenz Inc.

快速回复 返回顶部 返回列表